Трекер: Видео HDTV Фильмы высокого разрешения в формате HDTV


Ответ
 
LinkBack Опции темы
Старый 20.02.2011, 16:18   #1 (ссылка на пост)
t1975453
Софтовод
 
Аватар для t1975453
 
Регистрация: 25.03.2008
Адрес: Омск
Сообщений: 466
t1975453 - просто великолепная личностьt1975453 - просто великолепная личностьt1975453 - просто великолепная личностьt1975453 - просто великолепная личностьt1975453 - просто великолепная личностьt1975453 - просто великолепная личностьt1975453 - просто великолепная личность
Информация

Отправить сообщение для t1975453 с помощью ICQ
По умолчанию Неадекватные люди (Роман Каримов) [2010, мелодрама, комедия, BDRip 720p]

Неадекватные люди

[Ссылки могут видеть только зарегистрированные пользователи. ]
Год выпуска: 2010
Страна: Россия
Слоган: «Биться головой о стенку гораздо веселее, когда знаешь, что за ней скрывается родственная душа.»

Жанр: мелодрама, комедия
Продолжительность: 01:46:15
Перевод: Не требуется

Режиссер: Роман Каримов
Сценарий: Роман Каримов
Продюсер: Михаил Кукушкин, Андрей Тарасов, Антон Торопцев, Геворг Нерсисян, Илья Овсенев
Оператор: Илья Овсенев
Композитор: Роман Каримов

В ролях: [Ссылки могут видеть только зарегистрированные пользователи. ] (Виталий), [Ссылки могут видеть только зарегистрированные пользователи. ] (Кристина), [Ссылки могут видеть только зарегистрированные пользователи. ] (психолог), [Ссылки могут видеть только зарегистрированные пользователи. ] (Марина), [Ссылки могут видеть только зарегистрированные пользователи. ] (Артур), [Ссылки могут видеть только зарегистрированные пользователи. ] (Нина), [Ссылки могут видеть только зарегистрированные пользователи. ] (Юлия), [Ссылки могут видеть только зарегистрированные пользователи. ] (Света), [Ссылки могут видеть только зарегистрированные пользователи. ] (мужик со стульями), [Ссылки могут видеть только зарегистрированные пользователи. ] (ассистентка психолога), [Ссылки могут видеть только зарегистрированные пользователи. ] (бармен), [Ссылки могут видеть только зарегистрированные пользователи. ] (девушка Виталия)

Бюджет: $100 000
Маркетинг: $300 000
Сборы в России: $494 398

Релиз на DVD: 10 февраля 2011, «Парадиз-ВC»
Релиз на Blu-ray: 10 февраля 2011, «Парадиз-ВC»

Описание: Тихий и воспитанный Виталик пытается начать жизнь с нуля в новом городе. Но странным образом ему на пути попадаются одни сумасшедшие. Его соседкой по лестничной площадке оказывается взбалмошная Кристина, стремящаяся переделать его из задрота в нормального мужика, на новой работе атакует похотливая начальница и даже психолог, помогающий ему совладать со всем этим - и тот оказывается садо-мазохистом. Виталик кажется единственным адекватным человеком здесь. Но так ли это на самом деле?

Рейтинг
[Ссылки могут видеть только зарегистрированные пользователи. ]: 7.899 (7 688)
imdb.com: 7.70 (267)

Качество: BDRip
Формат: Matroska

Видео: AVC; 1280x720 (16:9); 5129 Kbps; 23,976 fps; 0,232 bpp
Аудио: AC3; 640 Kbps; CBR; 6 ch

[Ссылки могут видеть только зарегистрированные пользователи. ]
MI

Формат : Matroska
Размер файла : 4,37 Гбайт
Продолжительность : 1 ч. 46 м.
Общий поток : 5887 Кбит/сек
Дата кодирования : UTC 2011-02-18 16:29:58
Программа кодирования : mkvmerge v3.3.0 ('Language') built on Mar 24 2010 14:59:24
Библиотека кодирования : libebml v0.8.0 + libmatroska v0.9.0

Видео
Идентификатор : 1
Формат : AVC
Формат/Информация : Advanced Video Codec
Профиль формата : [Ссылки могут видеть только зарегистрированные пользователи. ]
Параметр CABAC формата : Да
Параметр ReFrames формата : 4 кадры
Идентификатор кодека : V_MPEG4/ISO/AVC
Продолжительность : 1 ч. 46 м.
Битрейт : 5250 Кбит/сек
Ширина : 1280 пикс.
Высота : 720 пикс.
Соотношение сторон : 16:9
Частота кадров : 23,976 кадр/сек
Цветовое пространство : YUV
Подвыборка цветности : 4:2:0
Битовая глубина : 8 бит
Тип развёртки : Прогрессивная
Бит/(Пиксели*Кадры) : 0.238
Размер потока : 3,81 Гбайт (87%)
Библиотека кодирования : x264 core 112 r1867 22bfd31
Настройки программы : cabac=1 / ref=4 / deblock=1:-1:-1 / analyse=0x3:0x113 / me=umh / subme=7 / psy=1 / psy_rd=1.00:0.00 / mixed_ref=1 / me_range=16 / chroma_me=1 / trellis=2 / 8x8dct=1 / cqm=0 / deadzone=21,11 / fast_pskip=1 / chroma_qp_offset=-2 / threads=12 / sliced_threads=0 / nr=0 / decimate=1 / interlaced=0 / constrained_intra=0 / bframes=3 / b_pyramid=0 / b_adapt=2 / b_bias=0 / direct=3 / weightb=1 / open_gop=0 / weightp=2 / keyint=250 / keyint_min=23 / scenecut=40 / intra_refresh=0 / rc_lookahead=40 / rc=2pass / mbtree=1 / bitrate=5250 / ratetol=1.0 / qcomp=0.60 / qpmin=10 / qpmax=51 / qpstep=4 / cplxblur=20.0 / qblur=0.5 / vbv_maxrate=50000 / vbv_bufsize=50000 / nal_hrd=none / ip_ratio=1.40 / aq=1:1.00
Язык : English

Аудио
Идентификатор : 2
Формат : AC-3
Формат/Информация : Audio Coding 3
Расширение режима : CM (complete main)
Идентификатор кодека : A_AC3
Продолжительность : 1 ч. 46 м.
Вид битрейта : Постоянный
Битрейт : 640 Кбит/сек
Канал(ы) : 6 канала(ов)
Расположение каналов : Front: L C R, Side: L R, LFE
Частота : 48,0 КГц
Битовая глубина : 16 бит
Метод сжатия : С потерями
Размер потока : 486 Мбайт (11%)


[Ссылки могут видеть только зарегистрированные пользователи. ] [Ссылки могут видеть только зарегистрированные пользователи. ] [Ссылки могут видеть только зарегистрированные пользователи. ] [Ссылки могут видеть только зарегистрированные пользователи. ] [Ссылки могут видеть только зарегистрированные пользователи. ] [Ссылки могут видеть только зарегистрированные пользователи. ] [Ссылки могут видеть только зарегистрированные пользователи. ] [Ссылки могут видеть только зарегистрированные пользователи. ] [Ссылки могут видеть только зарегистрированные пользователи. ]


Вложения:
t1975453 вне форума   Ответить с цитированием
Ответ

Социальные закладки

Опции темы

Ваши права в разделе
Вы не можете создавать новые темы
Вы не можете отвечать в темах
Вы не можете прикреплять вложения
Вы не можете редактировать свои сообщения

BB коды Вкл.
Смайлы Вкл.
[IMG] код Вкл.
HTML код Выкл.
Trackbacks Вкл.
Pingbacks Вкл.
Refbacks Вкл.

Быстрый переход

Похожие темы
Тема Автор Раздел Ответов Последнее сообщение
Турист The Tourist Флориан Хенкель фон Доннерсмарк Florian Henckel von Donnersmarck 2010 г Боевик триллер драма BDRip 720p t1975453 Трекер: Видео HDTV 0 20.02.2011 02:09
Office 2010 Professional Plus [2010 г., Microsoft] MiraMaX166 Трекер: Windows 9 12.01.2011 11:27
Атомные люди MiraMaX166 Трекер: Видео Xvid 1 30.04.2010 22:53
Люди, Звёзды и Круги - НЛО? Ага! Mr.Alex Свободное общение 4 05.10.2009 07:03
Люди Икс. Начало. Росомаха sash83 Фантастика / Мистика / Катастрофа 7 25.06.2009 00:32


Реламный блок
 

Текущее время: 03:19. Часовой пояс GMT +6.


Rambler's Top100 Счётчик тиц

vBulletin Skin by MiraMaX166
Powered by vBulletin® Version 3.8.5
Copyright ©2000 - 2019, Jelsoft Enterprises Ltd. Перевод: zCarot
Время генерации страницы 0.13532 секунды с 19 запросами