Трекер: Видео HDTV Фильмы высокого разрешения в формате HDTV


Ответ
 
LinkBack Опции темы
Старый 20.02.2011, 02:09   #1 (ссылка на пост)
t1975453
Софтовод
 
Аватар для t1975453
 
Регистрация: 25.03.2008
Адрес: Омск
Сообщений: 466
t1975453 - просто великолепная личностьt1975453 - просто великолепная личностьt1975453 - просто великолепная личностьt1975453 - просто великолепная личностьt1975453 - просто великолепная личностьt1975453 - просто великолепная личностьt1975453 - просто великолепная личность
Информация

Отправить сообщение для t1975453 с помощью ICQ
По умолчанию Турист The Tourist Флориан Хенкель фон Доннерсмарк Florian Henckel von Donnersmarck 2010 г Боевик триллер драма BDRip 720p

[Ссылки могут видеть только зарегистрированные пользователи. ]

[Ссылки могут видеть только зарегистрированные пользователи. ][Ссылки могут видеть только зарегистрированные пользователи. ]



Год выпуска: 2010
Жанр: боевик, триллер, драма
Продолжительность : 01:43:28
Страна: США / Франция
Перевод: Дублированное [лицензия]
Cубтитры: Russian [Forced]



Режиссеры:
Флориан Хенкель фон Доннерсмарк/Florian Henckel von Donnersmarck

Актеры:
Джонни Депп, Анджелина Джоли, Пол Беттани, Тимоти Далтон, Стивен Беркофф, Руфус Сьюэлл, Кристиан Де Сика, Алессио Бони, Даниэле Печчи, Джованни Гуиделли


Описание:
Американский турист Фрэнк приезжает в Италию, чтобы залечить душевную рану. В Венеции он знакомится с необычной женщиной по имени Элиза. Израненное сердце, похоже, готово сдаться новой возлюбленной. Однако планы Фрэнка и Элизы грубейшим образом нарушает водоворот интриг и опасностей.


Релиз группы: [Ссылки могут видеть только зарегистрированные пользователи. ]



Качество видео: BDRip 720p
Формат: MKV
Видео кодек: MPEG-4 AVС
Аудио кодек: AC3/DTS
Видео: 1280x534/ 4541 кбит/с / 23.976 fps / , 0.27 Бит/(Пиксели*Кадры)
Аудио : Russian (AC3, 6 ch, 384 kbps,48 кГц)
English (DTS, 6 ch, 1510 Kbps,48 кГц)


[Ссылки могут видеть только зарегистрированные пользователи. ]
MediaInfo
Полное имя The.Tourist.2010.D.BDRip.720p.mkv
Формат : Matroska
Размер файла : 4,65 Гбайт
Продолжительность : 1 ч. 43 м.
Общий поток : 6430 Кбит/сек
Название фильма : Турист / The Tourist (2010)
Дата кодирования : UTC 2011-02-19 11:30:36
Программа кодирования : mkvmerge v4.5.0 ('Speed of Light') сборка от Feb 1 2011 02:10:32
Библиотека кодирования : libebml v1.2.0 + libmatroska v1.1.0

Видео
Идентификатор : 1
Формат : AVC
Формат/Информация : Advanced Video Codec
Профиль формата : [Ссылки могут видеть только зарегистрированные пользователи. ]
Параметр CABAC формата : Да
Параметр ReFrames формата : 8 кадры
Режим смешивания : Header stripping
Идентификатор кодека : V_MPEG4/ISO/AVC
Продолжительность : 1 ч. 43 м.
Битрейт : 4541 Кбит/сек
Ширина : 1280 пикс.
Высота : 534 пикс.
Соотношение сторон : 2,35:1
Частота кадров : 23,976 кадр/сек
Цветовое пространство : YUV
Подвыборка цветности : 4:2:0
Битовая глубина : 8 бит
Тип развёртки : Прогрессивная
Бит/(Пиксели*Кадры) : 0.277
Размер потока : 3,19 Гбайт (69%)
Заголовок : The.Tourist.2010.D.BDRip.720p
Библиотека кодирования : x264 core 114 r1900 60ef1f8
Настройки программы : cabac=1 / ref=8 / deblock=1:-2:-2 / analyse=0x3:0x133 / me=umh / subme=9 / psy=1 / psy_rd=1.20:0.20 / mixed_ref=1 / me_range=16 / chroma_me=1 / trellis=2 / 8x8dct=1 / cqm=0 / deadzone=21,11 / fast_pskip=1 / chroma_qp_offset=-3 / threads=12 / sliced_threads=0 / nr=0 / decimate=0 / interlaced=0 / constrained_intra=0 / bframes=3 / b_pyramid=2 / b_adapt=2 / b_bias=0 / direct=3 / weightb=1 / open_gop=0 / weightp=2 / keyint=250 / keyint_min=2 / scenecut=40 / intra_refresh=0 / rc_lookahead=60 / rc=2pass / mbtree=1 / bitrate=4541 / ratetol=1.0 / qcomp=0.60 / qpmin=10 / qpmax=51 / qpstep=4 / cplxblur=20.0 / qblur=0.5 / vbv_maxrate=38000 / vbv_bufsize=38000 / nal_hrd=none / ip_ratio=1.40 / aq=1:1.00
Язык : English

Аудио #1
Идентификатор : 2
Формат : AC-3
Формат/Информация : Audio Coding 3
Расширение режима : CM (complete main)
Режим смешивания : Header stripping
Идентификатор кодека : A_AC3
Продолжительность : 1 ч. 43 м.
Вид битрейта : Постоянный
Битрейт : 384 Кбит/сек
Канал(ы) : 6 канала(ов)
Расположение каналов : Front: L C R, Side: L R, LFE
Частота : 48,0 КГц
Битовая глубина : 16 бит
Метод сжатия : С потерями
Размер потока : 284 Мбайт (6%)
Заголовок : AC3 5.1 @ 384 kb/s [Russian DUB R5]
Язык : Russian

Аудио #2
Идентификатор : 3
Формат : DTS
Формат/Информация : Digital Theater Systems
Режим смешивания : Header stripping
Идентификатор кодека : A_DTS
Продолжительность : 1 ч. 43 м.
Вид битрейта : Постоянный
Битрейт : 1510 Кбит/сек
Канал(ы) : 6 канала(ов)
Расположение каналов : Front: L C R, Side: L R, LFE
Частота : 48,0 КГц
Битовая глубина : 24 бит
Метод сжатия : С потерями
Размер потока : 1,09 Гбайт (23%)
Заголовок : DTS 5.1 @ 1510 kb/s [English]
Язык : English

Текст
Идентификатор : 4
Формат : UTF-8
Идентификатор кодека : S_TEXT/UTF8
Идентификатор кодека/Информация : UTF-8 Plain Text
Заголовок : Russian SUB [forced]
Язык : Russian

Скриншоты
[Ссылки могут видеть только зарегистрированные пользователи. ]
[Ссылки могут видеть только зарегистрированные пользователи. ]
[Ссылки могут видеть только зарегистрированные пользователи. ]
[Ссылки могут видеть только зарегистрированные пользователи. ]
[Ссылки могут видеть только зарегистрированные пользователи. ]
[Ссылки могут видеть только зарегистрированные пользователи. ]


Вложения:
t1975453 вне форума   Ответить с цитированием
Ответ

Социальные закладки

Опции темы

Ваши права в разделе
Вы не можете создавать новые темы
Вы не можете отвечать в темах
Вы не можете прикреплять вложения
Вы не можете редактировать свои сообщения

BB коды Вкл.
Смайлы Вкл.
[IMG] код Вкл.
HTML код Выкл.
Trackbacks Вкл.
Pingbacks Вкл.
Refbacks Вкл.

Быстрый переход

Похожие темы
Тема Автор Раздел Ответов Последнее сообщение
Office 2010 Professional Plus [2010 г., Microsoft] MiraMaX166 Трекер: Windows 9 12.01.2011 11:27


Реламный блок
 

Текущее время: 03:25. Часовой пояс GMT +6.


Rambler's Top100 Счётчик тиц

vBulletin Skin by MiraMaX166
Powered by vBulletin® Version 3.8.5
Copyright ©2000 - 2019, Jelsoft Enterprises Ltd. Перевод: zCarot
Время генерации страницы 0.10399 секунды с 19 запросами